#TITLE:Butterfly Show;
#SUBTITLE:;
#ARTIST:Show Luo;
#TITLETRANSLIT:Butterfly Show;
#SUBTITLETRANSLIT:;
#ARTISTTRANSLIT:La Chi Tuong;
#CREDIT:;
#BANNER:Butterfly Show-bn.png;
#BACKGROUND:Butterfly Show-bg.png;
#LYRICSPATH:;
#CDTITLE:pm4cd.png;
#MUSIC:Butterfly Show.mp3;
#OFFSET:0.040;
#SAMPLESTART:79.151;
#SAMPLELENGTH:20.000;
#SELECTABLE:YES;
#BPMS:0.000=130.010;
#STOPS:;
#BGCHANGES:;
// cache tags:
#FIRSTBEAT:1.000;
#LASTBEAT:397.250;
#SONGFILENAME:Songs/Music V.I.P ^_^/Butterfly Show/Butterfly Show.sm;
#HASMUSIC:1;
#HASBANNER:1;
#MUSICLENGTH:187.454;
// end cache tags

//---------------dance-single - ----------------
#NOTES:
     dance-single:
     :
     Hard:
     10:
     0.975,1.000,1.000,0.048,0.504,907.000,358.000,9.000,0.000,10.000:
0000
0000
0101
0001
0010
0100
0010
1000
,
0101
0000
1010
0100
0001
0010
0100
0001
,
1010
0000
1001
0100
0010
0100
1000
0010
,
1001
0000
1100
0010
0001
0010
1000
0010
,
1100
0000
0110
0001
0010
0100
0001
1000
,
0110
0000
0011
0100
0010
2000
0000
0000
,
0000
0000
0000
0000
,
3100
0010
0001
0000
1010
0000
0100
0000
0001
0000
0010
0000
0100
0000
0010
0000
,
1100
0001
0102
0000
0000
0000
0000
0000
,
0013
0100
1000
0000
0110
0000
0001
0000
0010
0000
0100
0000
0001
0000
1000
0000
,
0101
0010
1200
0000
0000
0000
0020
1001
,
1331
0000
0000
0000
0010
0100
1000
1000
0011
0000
1000
1000
0101
0000
0010
0010
,
1100
0000
0001
0001
1010
0000
0100
0100
0011
0000
1000
1000
0110
0000
0001
0001
,
1010
0000
0100
0100
0011
0000
1000
1000
0101
0000
0010
0010
1001
0000
0100
0100
,
1010
0000
0001
0001
1100
0000
0100
0100
1001
0000
0010
0010
0101
0000
0001
0001
,
0110
0000
0010
0010
0101
0000
1000
1000
0101
0000
0010
0010
1100
0000
1000
1000
,
0011
0000
0001
0001
1100
0000
0010
0010
1001
0000
1000
1000
0110
0000
0001
0001
,
1100
0000
0100
0100
0011
0100
1000
0100
1010
0000
0010
0000
1100
0010
0100
1000
,
0101
0010
0001
0010
2100
0000
0000
0000
0001
0000
0000
0000
0010
0000
0000
0000
,
0000
0000
0000
0000
3011
0000
1000
1000
0101
0000
0010
0000
1001
0000
1000
0000
,
0011
0000
0100
0000
1010
0000
0001
0001
0110
0000
1000
0000
1001
0000
0010
0000
,
0101
0000
0100
0000
1100
0000
0010
0010
0101
0000
1000
0000
0110
0000
0001
0000
,
1010
0000
0100
0000
1100
0000
1000
1000
0011
0000
1000
0000
1001
0000
0010
0000
,
0101
0000
0100
0000
1100
0000
0010
0010
1001
0000
0001
0000
0110
0000
0100
0000
,
1010
0000
1000
0000
0101
0000
0100
0100
0011
0000
1000
0000
1001
0000
0010
0000
,
0110
0000
0100
0000
1100
0000
0100
0100
1001
0000
0010
0000
0101
0000
0100
0000
,
1100
0001
1020
0000
0100
0000
1000
0000
,
0001
0000
0000
0000
1131
0010
0100
1000
0101
0000
0010
0000
1100
0000
0001
0000
,
1010
0000
0100
0000
0011
0100
0010
0100
1001
0000
1000
0000
0101
0000
0010
0000
,
1100
0000
0001
0000
1010
0001
0010
0001
0110
0000
1000
0000
1001
0000
0100
0000
,
1010
0000
0001
0000
1100
0010
0100
0010
0101
0000
0001
0000
1010
0000
1000
0000
,
1001
0000
0100
0000
0011
0100
1000
0100
1001
0000
0001
0000
0110
0000
1000
0000
,
0011
0000
0100
0000
0110
0001
1000
0010
0101
0000
0010
0000
1001
0000
0100
0000
,
0011
0000
1000
0000
0110
1000
0001
0100
1010
0000
0010
0000
0101
0000
0100
0000
,
1001
0010
1100
0010
0100
0010
0001
0010
,
0100
0000
1000
0000
0111
1000
0100
0010
0101
0000
0010
0000
1100
0000
0010
0000
,
1001
0000
0100
0000
0011
1000
0100
0010
1100
0000
0010
0000
0101
0000
0001
0000
,
1100
0000
0100
0000
0101
1000
0010
0100
1001
0000
0010
0000
1100
0000
0001
0000
,
1010
0000
0100
0000
1001
0010
1000
0100
0011
0000
0010
0000
0101
0000
0010
0000
,
1100
0000
0001
0000
1001
0010
0100
0001
0110
0000
0010
0000
0011
0000
1000
0000
,
1001
0000
0100
0000
1010
0100
0010
0001
0110
0000
1000
0000
1001
0000
0100
0000
,
0011
0000
0001
0000
0110
1000
0100
0010
1001
0000
0100
0000
0011
0000
1000
0000
,
1001
0010
1020
0000
0100
0000
1000
0000
,
0001
0000
0100
0000
1131
0000
0010
0010
0101
0000
0010
0000
1100
0000
0001
0000
,
1010
0000
0100
0000
0011
0000
1000
1000
0101
0000
0010
0000
1001
0000
0100
0000
,
0011
0000
0001
0000
1001
0000
0010
0010
1100
0000
1000
0000
0110
0000
0001
0000
,
1010
0000
0100
0000
1001
0000
0001
0001
0101
0000
0100
0000
1100
0000
1000
0000
,
0110
0000
0001
0000
0011
0000
0100
0100
1010
0000
0010
0000
1100
0000
0100
0000
,
0110
0000
0001
0000
1001
0000
0100
0100
0011
0000
1000
0000
1001
0000
0100
0000
,
1010
0000
0010
0000
0011
0000
1000
1000
0110
0000
0001
0000
0011
0000
0100
0000
,
1010
0010
1001
0100
0000
0010
0000
0001
,
0010
0000
0000
0000
0110
0000
0000
0100
0000
0000
0000
0000
0010
0000
0000
1000
,
0000
0001
1010
0100
0000
0100
0000
0100
,
0101
0000
0000
0000
1100
0000
0000
0001
0000
0000
0000
0000
0010
0000
0000
1000
,
0000
0100
1010
0001
0000
0001
0000
0001
,
0110
0000
0000
0000
1100
0000
0000
0010
0000
1001
0000
0000
0101
0000
0000
0010
,
0000
1100
0000
0001
0110
0000
1000
0000
0010
0000
1000
0000
0011
0000
0100
0000
,
0010
0000
0001
0000
1010
0000
0000
0100
0000
0000
0000
0000
1100
0000
0000
0010
,
0000
0110
0000
0010
0101
0000
0000
0000
1000
0000
1000
0000
0000
0000
1000
0000
,
1100
0000
0010
0000
1101
0010
0100
0010
0101
0000
0110
0000
1100
0000
1001
0000
,
1010
0000
0101
0000
0011
0100
1000
0100
1001
0000
0011
0000
0110
0000
1100
0000
,
1001
0000
0101
0000
0110
0001
0010
0100
1001
0000
1010
0000
0110
0000
0101
0000
,
0011
0000
1001
0000
1100
0001
0010
0100
1010
0000
0011
0000
1100
0000
0110
0000
,
1001
0000
0110
0000
1100
0010
0001
1000
0110
0000
1001
0000
0110
0000
0011
0000
,
1010
0000
0110
0000
1100
0010
0100
1000
0011
0000
1001
0000
0110
0000
1100
0000
,
1001
0000
0101
0000
0011
1000
0010
0100
1001
0000
0110
0000
1100
0000
0011
0000
,
0101
1001
0110
1000
0100
0010
0001
0000
,
0020
0000
0000
0000
1131
0010
0100
0100
1001
0100
0010
0001
0010
0100
0010
0100
,
1010
0100
0010
0001
0010
0100
0010
0010
0101
0010
0100
0001
0010
0100
0010
0001
,
1100
0010
0100
1000
0001
0010
1000
1000
0110
0001
0010
0100
0001
1000
0100
0010
,
0101
0010
0001
1000
0100
0010
0100
0100
0011
1000
0100
0001
0010
1000
0010
0001
,
0110
1000
0001
0010
0100
1000
0010
0010
1001
0100
0010
0100
1000
0010
0100
0010
,
0101
1000
0100
0010
0100
0001
0010
0010
1100
0010
0100
0001
0010
1000
0100
0010
,
0101
0010
0001
1000
0010
0001
0100
0100
0011
0100
0010
0001
1000
0100
0010
0001
,
0110
0001
0010
0100
1000
0001
0010
0000
0001
0000
1000
0000
0100
0000
0010
0000
,
0100
0000
0010
0000
1001
0100
0001
0010
0101
0000
0100
0000
0011
0000
1000
0000
,
0101
0000
0010
0000
1001
0010
0100
1000
1010
0000
0010
0000
0101
0000
0100
0000
,
0011
0000
1000
0000
1001
1000
0100
0010
1100
0000
0001
0000
1010
0000
0010
0000
,
0101
0000
0001
0000
0110
0001
0100
0010
1001
0000
0100
0000
0011
0000
1000
0000
,
0110
0000
0001
0000
1010
0100
1000
0010
1001
0000
0010
0000
0101
0000
0100
0000
,
1100
0000
0001
0000
1010
0100
0010
0001
1001
0000
0010
0000
1010
0000
0100
0000
,
1100
0000
0001
0000
0110
0001
1000
0010
1010
0000
0001
0000
0011
0000
1000
0000
,
1010
0100
1001
0000
0010
0000
0100
0010
,
0001
0000
0010
0000
1011
0000
0010
0010
0110
0000
1000
0000
1001
0000
0010
0000
,
1100
0000
0001
0000
1010
0000
0010
0010
0101
0000
0100
0000
0011
0000
1000
0000
,
0110
0000
1000
0000
0101
0000
0100
0100
1001
0000
0010
0000
1100
0000
0001
0000
,
0101
0000
0100
0000
1100
0000
0010
0010
1010
0000
0100
0000
0011
0000
1000
0000
,
0110
0000
0001
0000
1010
0000
0010
0010
0011
0000
1000
0000
1001
0000
0010
0000
,
1100
0000
1000
0000
1010
0000
0100
0100
1100
0000
0001
0000
1001
0000
0100
0000
,
0011
0000
0010
0000
1010
0000
1000
1000
1010
0000
0010
0000
1001
0000
0100
0000
,
0011
0000
0010
0000
1001
0000
0100
0100
0011
0000
1000
0000
0101
0000
0010
0000
,
1001
0000
0110
0000
1010
0000
0001
0001
1001
0000
0011
0000
0110
0000
1100
0000
,
0011
0000
1001
0000
0101
0000
1000
1000
1100
0000
0101
0000
1001
0000
1010
0000
,
0101
0000
0110
0000
1100
0000
0100
0100
0110
0000
1001
0000
1010
0000
1100
0000
,
0011
0000
1010
0000
1001
0000
0001
0001
0011
0000
0110
0000
1001
0000
0101
0000
,
1010
0000
0110
0000
0011
0000
0100
0100
0101
0000
0110
0000
1001
0000
0101
0000
,
0011
0000
1010
0000
1001
0000
0001
0001
1100
0000
0101
0000
1001
0000
0011
0000
,
0110
0000
1001
0000
1100
0000
0010
0010
1010
0000
1100
0000
1010
0000
0101
0000
,
1001
0110
0011
1000
0100
0010
0001
0010
,
0200
0000
0000
0000
0000
0311
0000
0000
0000
0000
0000
0000
0000
0000
0000
0000
;
